Skip to Content

DLNA Video's consistently powering off OLED65B8PUA

6 months after getting this TV the videos streamed from my synology to this tv when played are powering off the TV.

DLNA Video's consistently powering off OLED65B8PUA

Posted on 2019-07-21 17:44:10 OLED TVs Vote Up0Vote Down
6 months after getting this TV the videos streamed from my synology to this tv when played are powering off the TV.
I've tried on other tv's and this tv is the only ive ever had a problem with these videos.
I've factory reset the tv 3 times. My firmware is the most recent listed on your site.(like this month or last 2019)


Questions:
  • Is it typical that these tv's power off when playing a video that is not compatible? or no
  • Is there a way to update your built in DLNA app the Content Share by itself?
  • Could you take a look at the below Mediainfo of the video and tell me if the format is the reason?

Any other suggestions?

I love the TV its my first OLED and LG. But we constantly watch DLNA so this is important.


Thank you


Format                                   : MPEG-4
Format profile                           : Base Media
Codec ID                                 : isom (isom/iso2/avc1/mp41)
File size                                : 221 MiB
Duration                                 : 21 min 33 s
Overall bit rate                         : 1 432 kb/s

Video
ID                                       : 1
Format                                   : AVC
Format/Info                              : Advanced Video Codec
Format profile                           : Baseline@L3.1
Format settings                          : 1 Ref Frames
Format settings, CABAC                   : No
Format settings, Reference frames        : 1 frame
Codec ID                                 : avc1
Codec ID/Info                            : Advanced Video Coding
Duration                                 : 21 min 33 s
Bit rate                                 : 1 298 kb/s
Width                                    : 636 pixels
Height                                   : 480 pixels
Display aspect ratio                     : 4:3
Frame rate mode                          : Constant
Frame rate                               : 29.970 (30000/1001) FPS
Color space                              : YUV
Chroma subsampling                       : 4:2:0
Bit depth                                : 8 bits
Scan type                                : Progressive
Bits/(Pixel*Frame)                       : 0.142
Stream size                              : 200 MiB (91%)
Color range                              : Limited
Codec configuration box                  : avcC

Audio
ID                                       : 2
Format                                   : AAC LC
Format/Info                              : Advanced Audio Codec Low Complexity
Codec ID                                 : mp4a-40-2
Duration                                 : 21 min 33 s
Bit rate mode                            : Constant
Bit rate                                 : 128 kb/s
Channel(s)                               : 2 channels
Channel layout                           : L R
Sampling rate                            : 44.1 kHz
Frame rate                               : 43.066 FPS (1024 SPF)
Compression mode                         : Lossy
Stream size                              : 19.7 MiB (9%)
Default                                  : Yes
Alternate group                          : 1
Tagged:

Be the first person to comment here!

This discussion has been closed.